Search

Thursday, 17 August 2017

Game Of Thrones -S07E06 - HDTV - 720p - x265 -385 MB- ESubs-(Gamer's)

c6ab3006404b5ee44af6da3826c15e8b.png
e666097357c9d54ad81b49126bd8b271.png
49639c6053bfda53269634f6d0927de6.png
a6f81ab1480366972219398a1c07eda7.png

torrborder.gif

torrborder.gif

GAMER'S EXCLUSIVE

Despacito Remix -Justin Bieber Luis Fonsi Daddy Yankee - 320 KBPS - With Cover - 9MB - [Saavn mp3] [GAMER'S EXCLUSIVE]

ef5faa82a0e51eb4b01f505acb5f22f6.png
INFO
Format                                   : MPEG Audio
Format version                           : Version 1
Format profile                           : Layer 3
Mode                                     : Joint stereo
Mode extension                           : MS Stereo
Duration                                 : 3 min 48 s
Bit rate mode                            : Constant
Bit rate                                 : 320 kb/s
Channel(s)                               : 2 channels
Sampling rate                            : 48.0 kHz
Compression mode                         : Lossy
Stream size                              : 8.70 MiB (99%)
Writing library                          : LAME3.99.5


torrborder.gif




torrborder.gif

GAMER'S EXCLUSIVE

Monday, 14 August 2017

Njandukalude Naattil Oridavela | Enthaavo Song Video | Nivin Pauly | 1080/720p [GAMER'S]



Watch And Download the " Enthaavo " Song Video From the upcoming Malayalam Movie " Njandukalude Naattil Oridavela ", Starring Nivin Pauly, Aiswarya Lekshmi, Ahaana Krishnakumar, Lal, Shanthikrishna, Srinda, Siju Wilson, Sharf U Dheen, Krishna Sankar among others. Directed by Althaf Salim, Written by Althaf Salim and George Kora, Cinematography by Mukesh Muraleedharan, Edited by Dilip Dennis, Music and Background Score by Justin Varghese, Produced by Nivin Pauly under the banner of Pauly Jr. Pictures. Muzik247 is the official music partner.

Song Name - Enthaavo
Music Composed, Arranged, Programmed & Produced by Justin Varghese
Lyrics : Santhosh Varma
Vocals : Sooraj Santhosh
Backing Vocals : Justin Varghese
Bass Guitar : Jossy
Guitars : Mithun Raju
Ukulele, Mandolin, Banjo : Amar Sangam, Babu, Mithun Raju
Lap Steel Guitar : Prakash Sontakke
Flute : Nathan
Strings Quartet by Chennai Strings
Additional Strings & Bass Arranged by Vipinlal C.K.
Vocal Fine Tuning : Vipinlal C.K.
Recorded @ Krimson Avenue Studios Chennai, Bodhi Silent Scape, Noise Head Quarters, Kadris Keys Studios.
Recording Engineers : Sujith Sreedhar, Vishnu M Namboothiri, Rajan K.S, Kiran Lal, Aswin George John.
Mixed by Hemanth.K @ Reboot Productions
Mastered by Rajan.K.S @ Bodhi Silent Scape
Label : Muzik 247

torrborder.gif





torrborder.gif

GAMER'S EXCLUSIVE

Game of Thrones - S07E05 - Eastwatch - 540p - WEBRip - x264 - 472MB -Esubs -(ONLINE Streaming Link Added) [GAMER'S]

1f8c1277c7d74195f855249dfa6dcf13.jpg
c2058dda009e16b5f6c87ef143805c32.png
8b66a613a12e394bb9801ffb12cd430c.png
5e38e0097b510f8f04cbddefe2195849.png
6925fa4a356a45d824f9ce36bf16f697.png


INFO:
General:
Complete name :Game of Thrones -S07E05 -Eastwatch -540P- WEBRip - x264-AAC- 472MB -[GAMER'S EXCLUSIVE].mkv
Format   : Matroska
Format version   : Version 4 / Version 2
File size : 472 MiB
Duration   : 1 h 0 min
Overall bit rate : 1 082 kb/s
Movie name   : Encoded And Ripped by GAMER'S
Encoded date  : UTC 2017-08-14 06:37:58
Writing application   : mkvmerge v13.0.0 ('The Juggler') 64bit
Writing library  : libebml v1.3.4 + libmatroska v1.4.5 / Lavf56.30.100
Video
ID                                       : 1
Format                                   : AVC
Format/Info                              : Advanced Video Codec
Format profile                           : Main@L3.1
Format settings, CABAC                   : Yes
Format settings, RefFrames               : 4 frames
Codec ID                                 : V_MPEG4/ISO/AVC
Duration                                 : 1 h 0 min
Bit rate                                 : 983 kb/s
Width                                    : 960 pixels
Height                                   : 540 pixels
Display aspect ratio                     : 16:9
Frame rate mode                          : Constant
Frame rate                               : 23.976 (24000/1001) FPS
Color space                              : YUV
Chroma subsampling                       : 4:2:0
Bit depth                                : 8 bits
Scan type                                : Progressive
Bits/(Pixel*Frame)                       : 0.079
Stream size                              : 429 MiB (91%)
Title                                    : GAMER'S EXCLUSIVE
Writing library                          : x264 core 146
Default                                  : Yes
Forced                                   : No
Audio
ID                                       : 2
Format                                   : MPEG Audio
Format version                           : Version 1
Format profile                           : Layer 3
Mode                                     : Joint stereo
Mode extension                           : MS Stereo
Codec ID                                 : A_MPEG/L3
Codec ID/Hint                            : MP3
Duration                                 : 1 h 0 min
Bit rate mode                            : Constant
Bit rate                                 : 96.0 kb/s
Channel(s)                               : 2 channels
Sampling rate                            : 44.1 kHz
Frame rate                               : 38.281 FPS (1152 SPF)
Compression mode                         : Lossy
Delay relative to video                  : -19 ms
Stream size                              : 41.9 MiB (9%)
Title                                    : GAMER'S EXCLUSIVE
Writing library                          : LAME3.99ó#Îk"q^ru)¤
Language                                 : English
Default                                  : Yes
Forced                                   : No
Text
ID                                       : 3
Format                                   : UTF-8
Codec ID                                 : S_TEXT/UTF8
Codec ID/Info                            : UTF-8 Plain Text
Duration                                 : 1 h 0 min
Bit rate                                 : 55 b/s
Count of elements                        : 779
Stream size                              : 24.7 KiB (0%)
Title                                    : GAMER'S EXCLUSIVE
Language                                 : English
Default                                  : No
Forced                                   : No


torrborder.gif
Direct Download Links:
Online Streaming Link:
torrborder.gif

GAMER'S EXCLUSIVE ENCODE

Monday, 7 August 2017

Game of Thrones - S07E04 - The Spoils oF War - 720p -WEBRIP - x264 - Esubs - 293 MB - [GAMER'S]

b40d96f6674ce443fc5e03f4c8eb36dc.md.jpg

211ac012e9d35bc84c8254225048b2b3.md.png56dd75fe77ae9e9ab58996f6660303f9.md.png
51039ed4a4bb4267caddd65fadfa31d8.md.pngc37f4b45d8bcf0bef555a42ba9c9de2b.md.png
93f160f9def9ecb4ea6ea49752110e0d.md.png

Media Info:
General:
Complete name : Game of Thrones - S07E04 - The Spoils oF War - 720p -WEBRIP - x264 - [GAMER'S EXCLUSIVE].mkv
Format     : Matroska
Format version     : Version 4 / Version 2
File size     : 293 MiB
Duration      : 51 min 21 s
Overall bit rate  : 796 kb/s
Movie name : Encoded and Ripped by GAMER'S
Encoded date     : UTC 2017-08-07 07:16:28
Writing application    : mkvmerge v13.0.0 ('The Juggler') 64bit
Writing library: libebml v1.3.4 + libmatroska v1.4.5 / Lavf55.22.100
Video
ID                                       : 2
Format                                   : AVC
Format/Info                              : Advanced Video Codec
Format profile                           : High@L3.1
Format settings, CABAC                   : Yes
Format settings, RefFrames               : 4 frames
Codec ID                                 : V_MPEG4/ISO/AVC
Duration                                 : 51 min 21 s
Bit rate                                 : 725 kb/s
Width                                    : 960 pixels
Height                                   : 540 pixels
Display aspect ratio                     : 16:9
Frame rate mode                          : Constant
Frame rate                               : 23.976 (23976/1000) FPS
Color space                              : YUV
Chroma subsampling                       : 4:2:0
Bit depth                                : 8 bits
Scan type                                : Progressive
Bits/(Pixel*Frame)                       : 0.058
Stream size                              : 268 MiB (92%)
Title                                    : GAMER'S ENCODE
Writing library                          : x264 core 140 r2377 1ca7bb9
Default                                  : Yes
Forced                                   : No
Audio
ID                                       : 3
Format                                   : MPEG Audio
Format version                           : Version 1
Format profile                           : Layer 3
Mode                                     : Joint stereo
Codec ID                                 : A_MPEG/L3
Codec ID/Hint                            : MP3
Duration                                 : 51 min 21 s
Bit rate mode                            : Constant
Bit rate                                 : 64.0 kb/s
Channel(s)                               : 2 channels
Sampling rate                            : 44.1 kHz
Frame rate                               : 38.281 FPS (1152 SPF)
Compression mode                         : Lossy
Delay relative to video                  : -43 ms
Stream size                              : 23.5 MiB (8%)
Title                                    : GAMER'S EXCLUSIVE
Writing library                          : Lavc56.34.100 libmp3lame
Default                                  : Yes
Forced                                   : No
Text
ID                                       : 1
Format                                   : UTF-8
Codec ID                                 : S_TEXT/UTF8
Codec ID/Info                            : UTF-8 Plain Text
Duration                                 : 51 min 6 s
Bit rate                                 : 47 b/s
Count of elements                        : 617
Stream size                              : 18.0 KiB (0%)
Title                                    : GAMER'S
Default                                  : Yes
Forced                                   : No

 
torrborder.gif
torrborder.gif
GAMER'S EXCLUSIVE ENCODE

Tuesday, 1 August 2017

The Cave - Paid US 4$ - Apk + Data - Best Strategic Puzzle Game - [GAMER'S EXCLUSIVE]

fdc7f46fb26514bf23569c204bf0f324.jpg
4f7ddad23f655baefd90b180771d798a.jpg
44ac27e8c64d87fd36ef00a0eeb2fd5e.jpg
de4d16193da9b8a250f013aa37e3218d.png
3837eeeeec575fe09300f02bf0b78c62.png
aa9141194e4cdaebcd8d3e29cfe31916.png

INFO:

Descend into the mysterious depths of The Cave in this adventure game from Monkey Island creator Ron Gilbert and Double Fine Productions. 
Assemble a team of unlikely adventurers – each with their own unique personalities and stories– and descend into the heart of a sprawling, sentient cave in order to find that which is most important to each of them. The Cave has had millennia to spruce up the place so prepare to dive deep and solve the puzzles hidden within exotic locations including a subterranean amusement park, medieval castle, and fully armed nuclear research facility. The Cave is waiting. 
Seven Adventurers, Multiple Paths: 
Choose a team of three out of seven explorers and descend into the depths of The Cave. From the Hillbilly to the Time Traveler, all 7 characters have their own unique personalities, special talents, and mysterious motivations for descending into The Cave. 
Prolific Pedigree: 
Experience the detailed, stunning art style and humor that only Double Fine and Ron Gilbert can dream up. 
Better Together: 
Seamlessly switch between characters and work together to solve the puzzles held within The Cave’s depths. Every solution leads you closer to discovering the truth behind each character.
System Requirements: 
Dual-core CPU with 1GB of ram and ~1.5GB free space. For best performance devices manufactured in 2012 or newer are suggested.
torrborder.gif.dccef5a002f7b4fed4e0e7000

FOR ADRENO DEVICES:
APK - DATA 1 - DATA 2
FOR MALI DEVICES:
APK - DATA 1 - DATA 2
FOR PVR DEVICES:
APK - DATA 1 - DATA 2
FOR TEGRA DEVICES:
APK - DATA 1 - DATA 2

torrborder.gif.dccef5a002f7b4fed4e0e7000

To Know Your Device GPU ,Just Search Mobile Model Name in Google OR Just Comment ,I will Reply

INSTRUCTIONS{IMPORTANT):
1.Install the APK File
2.Download both Data 1 and Data 2 of The Concerned Gpu of your Mobile
3.Extract The data1 by using any zipping sofware in Mobile or PC
4.A Folder is Obtained,Copy that folder to sdcard/Android/obb
5.Open the game,Play it OFFLINE

NOTE:
Create a New folder named obb in Android Directory and paste that extracted folder

Best Strategic Puzzle Game ever played 
Appreciate the DEVELOPERS smile.png
GAMER'S EXCLUSIVE

Game of Thrones - S07E03 - The Queens Justice 720p - Web Rip - x264 -285 MB - Esubs - [GAMER'S]

caf68fd9a9329bd489a0ae43ab18596e.jpg
324b152e638abd8ac040b9a8f92ded3a.png
18952212ec0b11dc734ccf1708272ef2.png
16e2b4b309c59d1a342b5c4b5e1da802.png
51d8b2ffd4e6f72245060203b64ce7d2.png
INFO:
GENERAL:
Complete name  : Game of Thrones - S07E03 - The Queens Justice 720p - Web Rip - x264 -285 MB - Esubs - [GAMER'S].mkv
Format                                   : Matroska
Format version                           : Version 4 / Version 2
File size                                : 285 MiB
Duration                                 : 1 h 4 min
Overall bit rate                         : 619 kb/s
Movie name                               : Encoded And Ripped By GAMER'S
Encoded date                             : UTC 2017-07-31 07:40:32
Writing application                      : mkvmerge v13.0.0 ('The Juggler') 64bit
Writing library                          : libebml v1.3.4 + libmatroska v1.4.5

Video
ID                                       : 1
Format                                   : AVC
Format/Info                              : Advanced Video Codec
Format profile                           : High@L3.1
Format settings, CABAC                   : Yes
Format settings, RefFrames               : 4 frames
Codec ID                                 : V_MPEG4/ISO/AVC
Duration                                 : 1 h 4 min
Bit rate                                 : 556 kb/s
Width                                    : 960 pixels
Height                                   : 540 pixels
Display aspect ratio                     : 16:9
Frame rate mode                          : Constant
Frame rate                               : 23.976 FPS
Color space                              : YUV
Chroma subsampling                       : 4:2:0
Bit depth                                : 8 bits
Scan type                                : Progressive
Bits/(Pixel*Frame)                       : 0.045
Stream size                              : 255 MiB (89%)
Title                                    : Gamer's
Default                                  : Yes
Forced                                   : No

Audio
ID                                       : 2
Format                                   : MPEG Audio
Format version                           : Version 1
Format profile                           : Layer 3
Mode                                     : Joint stereo
Mode extension                           : MS Stereo
Codec ID                                 : A_MPEG/L3
Codec ID/Hint                            : MP3
Duration                                 : 1 h 4 min
Bit rate mode                            : Constant
Bit rate                                 : 64.0 kb/s
Channel(s)                               : 2 channels
Sampling rate                            : 44.1 kHz
Frame rate                               : 38.281 FPS (1152 SPF)
Compression mode                         : Lossy
Delay relative to video                  : -25 ms
Stream size                              : 29.5 MiB (10%)
Title                                    : Gamer's Exclusive
Language                                 : English
Default                                  : Yes
Forced                                   : No

Text
ID                                       : 3
Format                                   : UTF-8
Codec ID                                 : S_TEXT/UTF8
Codec ID/Info                            : UTF-8 Plain Text
Duration                                 : 1 h 4 min
Bit rate                                 : 69 b/s
Count of elements                        : 990
Stream size                              : 32.8 KiB (0%)
Title                                    : Gamer's
Language                                 : English
Default                                  : No
Forced                                   : No

Menu
00:00:00.000                             : :Stay Tuned
00:00:00.041                             : :TV Rating
00:00:05.041                             : :Previously On
00:01:32.041                             : :Studio Logo
00:01:38.041                             : :Opening Credits
00:03:25.041                             : :Jon Snow arrives at Dragonstone; Dragonstone
00:09:22.041                             : :The King meets the Queen; Dragonstone
00:19:53.041                             : :Euron returns with his captives; King's Landing
00:24:45.041                             : :The Queen's justice; King's Landing
00:29:31.041                             : :The Iron Bank wants its gold back; King's Landing
00:33:52.041                             : :Tyrion tries to help Jon; Dragonstone
00:39:37.041                             : :Daenerys and Jon negotiate; Dragonstone
00:41:32.041                             : :Sansa receives an unexpected visitor; Winterfell
00:47:00.041                             : :Archmaester Ebrose examines Jorah; Oldtown
00:51:15.041                             : :Daenerys and her advisers discuss strategy; Dragonstone
00:54:53.041                             : :The Lannisters arrive; Highgarden
01:02:34.041                             : :End Credits
01:03:53.041                             : :Next On
01:04:23.041                             : :Online Extra


torrborder.gif.dccef5a002f7b4fed4e0e7000





torrborder.gif.dccef5a002f7b4fed4e0e7000
CHAPTERS INCLUDED
GAMER'S EXCLUSIVE ENCODE